Sign in to follow this  
.:Sexmeup:.

περιπέτεια GULLIVERS TRAVELS (2010) 1080p BluRay DD5.1 x264-EbP | ΞΕΧΩΡΙΣΤΟΙ ΥΠΟΤΙΤΛΟΙ

Recommended Posts

.:Sexmeup:.

GULLIVERS-TRAVELS-2010.jpg



XwMMNd.png

Είδος Ταινίας: Adventure, Comedy, Family
Πρεμιέρα: December 23, 2010
Σκηνοθέτης: Rob Letterman
Σενάριο: Joe Stillman, Nicholas Stoller, Jonathan Swift
Ηθοποιοί: Jack Black, Emily Blunt, Jason Segel
Υπότιτλοι: Ελληνικοί Ενσωματωμένοι & Σε Ξεχωριστό Αρχείο
Ελληνικός Τίτλος: Τα ταξίδια του Γκιούλιβερ
Μετάφραση: Άγνωστος
Διάρκεια: 85'

31358350dffc8dbf01f2d0c367580f71.png

Υπόθεση:

Lemuel Gulliver έχει εργαστεί στην αίθουσα αλληλογραφίας της Νέας Υόρκης για την ημερήσια εφημερίδα τα τελευταία δέκα χρόνια. Φοβάται να θέσει τον εαυτό του εκεί έξω, που θεωρεί τον εαυτό του έναν ηττημένο, όπως και όλα τους συνομηλίκους του. Μια μέρα, αφού είχε τελικά αρκετά, αποφασίζει να δηλώσει φλόγα του στην πανέμορφη Darcy Silverman, εκδότης της εφημερίδας ταξίδια και ένα από μόνο τους φίλους του Γκιούλιβερ.

b85e76378e742b264a5c5c835dc23616.png

https://www.imdb.com/title/tt1320261/

77351eb3ed057c57f1358c578eaeb7b2.png

Gullivers.Travels.2010.1080p.BluRay.x264

19f82e5efbf048cb604a2d2bd9da5dbd.png

[video=youtube;J-wXbyEQ5TM]https://www.youtube.com/watch?v=J-wXbyEQ5TM

TEXNIKA XAΡΑΚΤΗΡΙΣΤΙΚΑ



18f7c57258b09c2fd30cb21f6fe5e00c.png
afe9895f5505b339a4982e39dc19b930.png
ΑΝ ΘΕΛΕΤΕ ΝΑ ΣΤΗΡΙΞΕΤΕ ΤΗΝ ΔΟΥΛΕΙΑ ΜΟΥ
ΚΑΝΤΕ ΕΥΚΟΛΑ ΚΑΙ ΓΡΗΓΟΡΑ ΛΟΓΑΡΙΑΣΜΟ ΣΤΟ EASYBYTEZ KAI KATEΒΑΣΤΕ ΣΑΝ PREMIUM AΠO 20HOST!!
http://www.easybytez.com/free2771.html

Hidden Content

    Reply to this topic to see the hidden content.


d7844d678a536e1dd8665b69ecc1bdb6.png

Hidden Content

    Reply to this topic to see the hidden content.


Hidden Content

    Reply to this topic to see the hidden content.


7633c49ef8bc84bce73b2592e1708aad.png


General
Unique ID : 39414149171977197073931812597777392522 (0x1DA6E3964F2481A361FBF7A39D65638A)
Complete name : C:\Users\Administrator\Downloads\gulliverstravels1080brsexmeup\Gullivers.Travels.2010.1080p.BluRay.x264-EbP.mkv
Format : Matroska
Format version : Version 4
File size : 7.95 GiB
Duration : 1 h 24 min
Overall bit rate : 13.4 Mb/s
Frame rate : 23.976 FPS
Movie name : .:Sexmeup:. Quality Uploads - encodes -
Encoded date : 2023-05-15 08:38:09 UTC
Writing application : mkvmerge v31.0.0 ('Dolores In A Shoestand') 64-bit
Writing library : libebml v1.3.6 + libmatroska v1.4.9


Video
ID : 1
Format : AVC
Format/Info : Advanced Video Codec
Format profile : High@L4.1
Format settings : CABAC / 9 Ref Frames
Format settings, CABAC : Yes
Format settings, Reference frames : 9 frames
Codec ID : V_MPEG4/ISO/AVC
Duration : 1 h 24 min
Bit rate : 12.8 Mb/s
Width : 1 920 pixels
Height : 816 pixels
Display aspect ratio : 2.35:1
Frame rate mode : hellasddl.eu
Frame rate : 23.976 (24000/1001) FPS
Color space : YUV
Chroma subsampling : 4:2:0
Bit depth : 8 bits
Scan type : Progressive
Bits/(Pixel*Frame) : 0.341
Stream size : 7.41 GiB (93%)
Title : Gulliver's Travels 2010 1080p BluRay x264-EbP
Writing library : x264 core 114 r1913 5fd3dce
Encoding settings : cabac=1 / ref=9 / deblock=1:-3:-3 / analyse=0x3:0x133 / me=tesa / subme=10 / psy=1 / psy_rd=1.20:0.00 / mixed_ref=1 / me_range=16 / chroma_me=1 / trellis=2 / 8x8dct=1 / cqm=0 / deadzone=21,11 / fast_pskip=0 / chroma_qp_offset=-2 / threads=18 / sliced_threads=0 / nr=0 / decimate=0 / interlaced=0 / constrained_intra=0 / bframes=9 / b_pyramid=2 / b_adapt=2 / b_bias=0 / direct=3 / weightb=1 / open_gop=0 / weightp=2 / keyint=250 / keyint_min=23 / scenecut=40 / intra_refresh=0 / rc=2pass / mbtree=0 / bitrate=12800 / ratetol=1.0 / qcomp=0.60 / qpmin=0 / qpmax=69 / qpstep=4 / cplxblur=20.0 / qblur=0.5 / ip_ratio=1.40 / pb_ratio=1.30 / aq=2:0.50
Language : English
Default : Yes
Forced : No


Audio
ID : 2
Format : AC-3
Format/Info : Audio Coding 3
Commercial name : Dolby Digital
Codec ID : A_AC3
Duration : 1 h 24 min
Bit rate mode : hellasddl.eu
Bit rate : 640 kb/s
Channel(s) : 6 channels
Channel layout : L R C LFE Ls Rs
Sampling rate : 48.0 kHz
Frame rate : 31.250 FPS (1536 SPF)
Compression mode : Lossy
Stream size : 388 MiB (5%)
Title : English DD5.1 @ 640 Kbps
Language : English
Service kind : hellasddl.eu
Default : Yes
Forced : No


Text #1
ID : 3
Format : UTF-8
Codec ID : S_TEXT/UTF8
Codec ID/Info : UTF-8 Plain Text
Title : English
Language : English
Default : No
Forced : No


Text #2
ID : 4
Format : UTF-8
Codec ID : S_TEXT/UTF8
Codec ID/Info : UTF-8 Plain Text
Title : French
Language : French
Default : No
Forced : No


Text #3
ID : 5
Format : UTF-8
Codec ID : S_TEXT/UTF8
Codec ID/Info : UTF-8 Plain Text
Title : Spanish
Language : Spanish
Default : No
Forced : No


Text #4
ID : 6
Format : UTF-8
Codec ID : S_TEXT/UTF8
Codec ID/Info : UTF-8 Plain Text
Title : Swedish
Language : Swedish
Default : No
Forced : No


Text #5
ID : 7
Format : UTF-8
Codec ID : S_TEXT/UTF8
Codec ID/Info : UTF-8 Plain Text
Title : Vietnamese
Language : Vietnamese
Default : No
Forced : No


Text #6
ID : 8
Format : UTF-8
Codec ID : S_TEXT/UTF8
Codec ID/Info : UTF-8 Plain Text
Title : Romanian
Language : Romanian
Default : Yes
Forced : No

Share this post


Link to post
Share on other sites

Create an account or sign in to comment

You need to be a member in order to leave a comment

Create an account

Sign up for a new account in our community. It's easy!

Register a new account

Sign in

Already have an account? Sign in here.

Sign In Now
Sign in to follow this